Amy Winehouse – Back To Black (2013) [Blu-Ray Pure Audio Disc]

Amy Winehouse – Back To Black (2013) [High Fidelity Pure Audio Blu-Ray Disc]

LPCM 2.0  and DTS-HD Master Audio 2.0 & Dolby TrueHD 2.0 | Time – 34:51 minutes | 10.65 GB

Amy Winehouse’s second album, Back to Black, is one of the finest soul albums, British or otherwise, to come out in decades. Frank, her first album, was a sparse and stripped-down affair; Back to Black, meanwhile, is neither of these things. This time around, she’s taken her inspiration from some of the classic 1960’s girl groups like the Supremes and the Shangri-Las, a sound particularly suited to her textured vocal delivery, while adding a contemporary songwriting sensibility.

With the help of producers Mark Ronson and Salaam Remi, “Rehab” becomes a gospel-tinged stomp, while the title track (and album highlight) is a heartbreaking musical tribute to Phil Spector, with it’s echoey bass drum, rhythmic piano, chimes, saxophone and close harmonies. Best of all, though, is the fact that Back to Black bucks the trends in R&B by being unabashedly grown-up in both style and content.

Winehouse’s lyrics deal with relationships from a grown-up perspective, and are honest, direct and, often, complicated: on “You Know I’m No Good,” she’s unapologetic about her unfaithfulness. But she can also be witty, as on “Me & Mrs Jones” when she berates a boyfriend with “You made me miss the Slick Rick gig.” Back to Black is a refreshingly mature soul album, the best of its kind in years!

Back To Black took home five 2008 Grammy Awards including Best New Artist, Record of the Year, Song of the Year, Best Female Pop Vocal Performance and Best Pop Vocal Album while Mark Ronson also won for Producer of the Year.

Blu-ray Pure Audio Discs:

Audio is taken from the original master tapes and mastered in 24-bit/96kHz resolution with a choice of three sound formats: PCM, Dolby True HD, or DTS-HD Master Audio. You can finally enjoy the music in the fidelity originally experienced in the studio.

Amy Winehouse Back To Black Track Listing:

1.  Rehab  
2.  You Know I’m No Good  
3.  Me & Mr. Jones  
4.  Just Friends  
5.  Back To Black  
6.  Love Is A Losing Game  
7.  Tears Dry On Their Own  
8.  Wake Up Alone  
9.  Some Unholy War  
10. He Can Only Hold Her

 

DISC INFO:

Disc Title:     AMY WINEHOUSE BACK TO BLACK
Disc Size:      11,438,458,422 bytes
Protection:     AACS
BD-Java:        No
BDInfo:         0.5.6

PLAYLIST REPORT:

Name:                   00000.MPLS
Length:                 0:34:50 (h:m:s)
Size:                   10,767,157,248 bytes
Total Bitrate:          41.20 Mbps

VIDEO:

Codec                   Bitrate             Description
-----                   -------             -----------
MPEG-4 AVC Video        26321 kbps          1080p / 24 fps / 16:9 / High Profile 4.1

AUDIO:

Codec                           Language        Bitrate         Description
-----                           --------        -------         -----------
LPCM Audio                      English         4608 kbps       2.0 / 96 kHz / 4608 kbps / 24-bit
DTS-HD Master Audio             English         3677 kbps       2.0 / 96 kHz / 3677 kbps / 24-bit (DTS Core: 3.0 / 48 kHz / 1509 kbps / 24-bit)
Dolby TrueHD Audio              English         3071 kbps       2.0 / 96 kHz / 3071 kbps / 24-bit (AC3 Embedded: 2.0 / 48 kHz / 640 kbps)

FILES:

Name            Time In         Length          Size            Total Bitrate
----            -------         ------          ----            -------------
00000.M2TS      0:00:00.000     0:03:33.750     1,209,944,064   45,284
00002.M2TS      0:03:33.750     0:04:18.000     949,020,672     29,427
00003.M2TS      0:07:51.750     0:02:32.250     853,573,632     44,851
00004.M2TS      0:10:24.000     0:03:11.250     1,067,507,712   44,654
00005.M2TS      0:13:35.250     0:04:00.750     1,355,907,072   45,056
00006.M2TS      0:17:36.000     0:02:35.250     872,736,768     44,972
00007.M2TS      0:20:11.250     0:03:06.000     1,037,856,768   44,639
00008.M2TS      0:23:17.250     0:03:42.000     1,273,921,536   45,907
00009.M2TS      0:26:59.250     0:02:22.500     794,456,064     44,601
00010.M2TS      0:29:21.750     0:02:45.750     938,539,008     45,299
00011.M2TS      0:32:07.500     0:02:43.000     413,693,952     20,304

 

Download:

https://filejoker.net/ef9adg1134bt/AMYWIN3HOUS3BACKTOBLACK.part01.rar
https://filejoker.net/tvpyw2vqnary/AMYWIN3HOUS3BACKTOBLACK.part02.rar
https://filejoker.net/eilfwr9mbtbf/AMYWIN3HOUS3BACKTOBLACK.part03.rar
https://filejoker.net/zafxrastaplv/AMYWIN3HOUS3BACKTOBLACK.part04.rar
https://filejoker.net/e9ab1yql5ryj/AMYWIN3HOUS3BACKTOBLACK.part05.rar
https://filejoker.net/q86sgjntc0h0/AMYWIN3HOUS3BACKTOBLACK.part06.rar
https://filejoker.net/cxciiamzgdjd/AMYWIN3HOUS3BACKTOBLACK.part07.rar
https://filejoker.net/223033v8lox6/AMYWIN3HOUS3BACKTOBLACK.part08.rar
https://filejoker.net/acb6kd9hksxj/AMYWIN3HOUS3BACKTOBLACK.part09.rar
https://filejoker.net/db18fxmmmt55/AMYWIN3HOUS3BACKTOBLACK.part10.rar
https://filejoker.net/ky47txvz4gcd/AMYWIN3HOUS3BACKTOBLACK.part11.rar

Leave a Reply

Your email address will not be published. Required fields are marked *

This site uses Akismet to reduce spam. Learn how your comment data is processed.