Ayumi Hamasaki – Countdown Live 2009-2010 A ~Future Classics~ Blu-ray 720p DTS x264-CHD

2009年大晦日、国立代々木竞技场第一体育馆で、“Future Classics”と铭打って开催 されたカウントダウン?ライヴ「ayumi hamasaki COUNTDOWN LIVE 2009-2010 A(ロゴ) ~Future Classics~」を待望のDVD化! 6年ぶりの歌唱となった「teddy bear」や2009年の大ヒットSINGLE「You were…」など、新旧织り交ぜた人気曲の数々を、
様々な演出とステージ?パフォーマンスで表现した、まさに过去を 踏袭し未来へと繋がるライヴショウケースのひとつの完成形。2010年の幕开けを感动とともに迎えたスペシャル?ライヴを2枚组で完全収録!!

Tracklist:
01. I am…
02. Moments
03. STEP you
04. EnergizE
05. About You
06. momentum
07. You were…
08. Pride
09. INSPIRE
10. Because of You
11. 1 LOVE
12. until that Day…
13. Humming7/4
14. evolution
15. Startin‘

[encore]
16. teddy bear
17. Sunrise ~LOVE is ALL ~
18. Boys & Girls
19. RED LINE ~for TA ~
20. 特典映像: メイキング・ムービー

General
Complete name : Ayumi Hamasaki – Countdown Live 2009-2010 A ~Future Classics~.mkv
Format : Matroska
Format version : Version 2
File size : 9.50 GiB
Duration : 2h 28mn
Overall bit rate : 9 180 Kbps
Encoded date : UTC 2011-08-10 14:33:49
Writing application : mkvmerge v3.3.0 (‘Language’) ??? Mar 24 2010 14:59:24
Writing library : libebml v0.8.0 + libmatroska v0.9.0

Video
ID : 1
Format : AVC
Format/Info : Advanced Video Codec
Format profile : High@L4.1
Format settings, CABAC : Yes
Format settings, ReFrames : 9 frames
Codec ID : V_MPEG4/ISO/AVC
Duration : 2h 28mn
Bit rate : 7 476 Kbps
Width : 1 280 pixels
Height : 722 pixels
Display aspect ratio : 16:9
Frame rate mode : Constant
Frame rate : 29.970 fps
Color space : YUV
Chroma subsampling : 4:2:0
Bit depth : 8 bits
Scan type : Progressive
Bits/(Pixel*Frame) : 0.270
Stream size : 7.55 GiB (79%)
Writing library : x264 core 116 r2044 392e762
Encoding settings : cabac=1 / ref=9 / deblock=1:-3:-3 / analyse=0x3:0x113 / me=umh / subme=9 / psy=1 / psy_rd=1.05:0.10 / mixed_ref=1 / me_range=32 / chroma_me=1 / trellis=2 / 8x8dct=1 / cqm=2 / deadzone=21,11 / fast_pskip=0 / chroma_qp_offset=-2 / threads=9 / sliced_threads=0 / nr=0 / decimate=1 / interlaced=0 / bluray_compat=0 / constrained_intra=0 / bframes=6 / b_pyramid=2 / b_adapt=2 / b_bias=0 / direct=3 / weightb=1 / open_gop=0 / weightp=2 / keyint=250 / keyint_min=25 / scenecut=40 / intra_refresh=0 / rc_lookahead=40 / rc=2pass / mbtree=1 / bitrate=7476 / ratetol=1.0 / qcomp=0.60 / qpmin=1 / qpmax=63 / qpstep=4 / cplxblur=20.0 / qblur=0.5 / vbv_maxrate=40000 / vbv_bufsize=30000 / nal_hrd=none / ip_ratio=1.40 / aq=1:0.80
Language : English
Default : No
Forced : No

Audio #1
ID : 2
Format : DTS
Format/Info : Digital Theater Systems
Mode : 16
Format settings, Endianness : Big
Codec ID : A_DTS
Duration : 2h 28mn
Bit rate mode : Constant
Bit rate : 1 509 Kbps
Channel(s) : 6 channels
Channel positions : Front: L C R, Side: L R, LFE
Sampling rate : 48.0 KHz
Bit depth : 24 bits
Compression mode : Lossy
Stream size : 1.56 GiB (16%)
Language : Japanese
Default : Yes
Forced : No

Audio #2
ID : 3
Format : AC-3
Format/Info : Audio Coding 3
Mode extension : CM (complete main)
Format settings, Endianness : Big
Codec ID : A_AC3
Duration : 2h 28mn
Bit rate mode : Constant
Bit rate : 192 Kbps
Channel(s) : 2 channels
Channel positions : Front: L R
Sampling rate : 48.0 KHz
Bit depth : 16 bits
Compression mode : Lossy
Stream size : 203 MiB (2%)
Language : Japanese
Default : No
Forced : No

Download:

https://filejoker.net/2nbvdayxubuv/AyumHamasak.Countdown.Live.2009-2010.part01.rar
https://filejoker.net/eo072cb1kgzj/AyumHamasak.Countdown.Live.2009-2010.part02.rar
https://filejoker.net/8qsyxs9xj4mw/AyumHamasak.Countdown.Live.2009-2010.part03.rar
https://filejoker.net/2djut2voo8ck/AyumHamasak.Countdown.Live.2009-2010.part04.rar
https://filejoker.net/9rptfond897r/AyumHamasak.Countdown.Live.2009-2010.part05.rar
https://filejoker.net/y36gfczowflr/AyumHamasak.Countdown.Live.2009-2010.part06.rar
https://filejoker.net/ouvn8x3pipzt/AyumHamasak.Countdown.Live.2009-2010.part07.rar
https://filejoker.net/iz7l7kpckgz5/AyumHamasak.Countdown.Live.2009-2010.part08.rar
https://filejoker.net/kqum5dhirfe1/AyumHamasak.Countdown.Live.2009-2010.part09.rar
https://filejoker.net/k92hcyhfjhp3/AyumHamasak.Countdown.Live.2009-2010.part10.rar

Leave a Reply

Your email address will not be published. Required fields are marked *

This site uses Akismet to reduce spam. Learn how your comment data is processed.