Ayumi Hamasaki – Countdown Live A 2007-2008 Anniversary Blu-ray 720p DTS x264-CHD

2007年大晦日に国立代々木競技場第一体育館で行われた浜崎あゆみのカウントダウンライブ。「卒業写真」をはじめ、アルバム「GUILTY」に収録されライブ初披露となる「Together When…」「untitled~for her~」など数々のヒット曲を披露。

Tracklist:

  1. starting over
  2. talkin’ 2 myself
  3. STEP you
  4. Ladies Night
  5. fated
  6. Together When…
  7. decision
  8. SURREAL
  9. Bold & Delicious
  10. RAINBOW
  11. evolution
  12. Boys & Girls
  13. glitter
  14. untitled ~for her~ 【encore】
  15. 卒業写真 【encore】
  16. 【encore】
  17. Humming 7/4 【encore】
  18. MY ALL 【encore】

General
Complete name : Ayumi Hamasaki – Countdown Live A 2007-2008 Anniversary.mkv
Format : Matroska
Format version : Version 2
File size : 8.71 GiB
Duration : 2h 14mn
Overall bit rate : 9 308 Kbps
Encoded date : UTC 2011-08-20 11:39:48
Writing application : mkvmerge v3.3.0 (‘Language’) 编译于 Mar 24 2010 14:59:24
Writing library : libebml v0.8.0 + libmatroska v0.9.0

Video
ID : 1
Format : AVC
Format/Info : Advanced Video Codec
Format profile : High@L4.1
Format settings, CABAC : Yes
Format settings, ReFr : 9 frames
Codec ID : V_MPEG4/ISO/AVC
Duration : 2h 14mn
Bit rate : 7 795 Kbps
Width : 1 280 pixels
Height : 722 pixels
Display aspect ratio : 16:9
Frame rate mode : Constant
Frame rate : 29.970 fps
Color space : YUV
Chroma subsampling : 4:2:0
Bit depth : 8 bits
Scan type : Progressive
Bits/(Pixel*Frame) : 0.281
Stream size : 7.13 GiB (82%)
Writing library : x264 core 116 r2044 392e762
Encoding settings : cabac=1 / ref=9 / deblock=1:-3:-3 / analyse=0x3:0x113 / me=umh / subme=9 / psy=1 / psy_rd=1.05:0.10 / mixed_ref=1 / me_range=32 / chroma_me=1 / trellis=2 / 8x8dct=1 / cqm=2 / deadzone=21,11 / fast_pskip=0 / chroma_qp_offset=-2 / threads=9 / sliced_threads=0 / nr=0 / decimate=1 / interlaced=0 / bluray_compat=0 / constrained_intra=0 / bframes=6 / b_pyramid=2 / b_adapt=2 / b_bias=0 / direct=3 / weightb=1 / open_gop=0 / weightp=2 / keyint=250 / keyint_min=25 / scenecut=40 / intra_refresh=0 / rc_lookahead=40 / rc=2pass / mbtree=1 / bitrate=7795 / ratetol=1.0 / qcomp=0.60 / qpmin=1 / qpmax=63 / qpstep=4 / cplxblur=20.0 / qblur=0.5 / vbv_maxrate=40000 / vbv_bufsize=30000 / nal_hrd=none / ip_ratio=1.40 / aq=1:0.80
Language : English
Default : No
Forced : No

Audio
ID : 2
Format : DTS
Format/Info : Digital Theater Systems
Mode : 16
Format settings, Endianness : Big
Codec ID : A_DTS
Duration : 2h 14mn
Bit rate mode : Constant
Bit rate : 1 509 Kbps
Channel(s) : 6 channels
Channel positions : Front: L C R, Side: L R, LFE
Sampling rate : 48.0 KHz
Bit depth : 24 bits
Compression mode : Lossy
Stream size : 1.41 GiB (16%)
Language : Japanese
Default : Yes
Forced : No

Download:
https://filejoker.net/63loolkhcfd6/AyumHamasak-CountdownLiveA2007-2008.part01.rar
https://filejoker.net/4wzu1sr5gmat/AyumHamasak-CountdownLiveA2007-2008.part02.rar
https://filejoker.net/oqp6drk8i8jz/AyumHamasak-CountdownLiveA2007-2008.part03.rar
https://filejoker.net/lsynie5gve56/AyumHamasak-CountdownLiveA2007-2008.part04.rar
https://filejoker.net/b1abq1dqy7t2/AyumHamasak-CountdownLiveA2007-2008.part05.rar
https://filejoker.net/cgvpqlko0xgd/AyumHamasak-CountdownLiveA2007-2008.part05.rar
https://filejoker.net/9ifs7pg4l447/AyumHamasak-CountdownLiveA2007-2008.part06.rar
https://filejoker.net/jfh7ticemiii/AyumHamasak-CountdownLiveA2007-2008.part07.rar
https://filejoker.net/0ugsha7w31n2/AyumHamasak-CountdownLiveA2007-2008.part08.rar
https://filejoker.net/j8quvmzyg81f/AyumHamasak-CountdownLiveA2007-2008.part09.rar
https://filejoker.net/xka24mwiulu6/AyumHamasak-CountdownLiveA2007-2008.part10.rar

Leave a Reply

Your email address will not be published. Required fields are marked *

This site uses Akismet to reduce spam. Learn how your comment data is processed.