Bob Dylan – Another Side Of Bob Dylan (1964) [SACD 2003] {SACD ISO + FLAC 24bit/88.2kHz}

Bob Dylan – Another Side Of Bob Dylan (1964) [SACD 2003]
PS3 Rip | ISO | SACD DST64 2.0 & 5.1 > 1-bit/2.8224 MHz | 50:43 minutes | Scans included | 3,04 GB
or FLAC 2.0 Stereo (converted with foobar2000 to tracks) 24bit/88,2 kHz | 50:31 mins | Scans | 977 MB

Tracklist:
01. All I Really Want To Do
02. Black Crow Blues
03. Spanish Harlem Incident
04. Chimes Of Freedom
05. I Shall Be Free No. 10
06. To Ramona
07. Motorpsycho Nightmare
08. My Back Pages
09. I Don’t Believe You
10. Ballad In Plain D
11. It Ain’t Me Babe

 

foobar2000 1.1.15 / Dynamic Range Meter 1.1.1
--------------------------------------------------------------------------------
Analyzed: Bob Dylan / Another Side Of Bob Dylan
--------------------------------------------------------------------------------
DR Peak RMS Duration Track
--------------------------------------------------------------------------------
DR13 -6.04 dB -22.54 dB 4:05 01-All I Really Want To Do
DR13 -7.42 dB -23.25 dB 3:13 02-Black Crow Blues
DR14 -6.07 dB -24.02 dB 2:25 03-Spanish Harlem Incident
DR14 -6.04 dB -23.04 dB 7:10 04-Chimes Of Freedom
DR14 -6.05 dB -21.95 dB 4:48 05-I Shall Be Free No. 10
DR14 -6.04 dB -22.64 dB 3:52 06-To Ramona
DR13 -6.08 dB -21.58 dB 4:32 07-Motorpsycho Nightmare
DR13 -6.03 dB -22.89 dB 4:24 08-My Back Pages
DR14 -6.00 dB -22.38 dB 4:23 09-I Don't Believe You
DR15 -6.04 dB -23.98 dB 8:15 10-Ballad In Plain D
DR13 -6.05 dB -22.59 dB 3:35 11-It Ain't Me Babe
--------------------------------------------------------------------------------
Number of tracks: 11
Official DR value: DR14
Samplerate: 2822400 Hz / PCM Samplerate: 88200 Hz
Channels: 6
Bits per sample: 24
Bitrate: 16934 kbps
Codec: DST64
================================================================================
--------------------------------------------------------------------------------
Analyzed: Bob Dylan / Another Side Of Bob Dylan
--------------------------------------------------------------------------------
DR Peak RMS Duration Track
--------------------------------------------------------------------------------
DR10 -6.04 dB -17.67 dB 4:03 01-All I Really Want To Do
DR10 -6.03 dB -17.67 dB 3:13 02-Black Crow Blues
DR11 -6.00 dB -19.02 dB 2:24 03-Spanish Harlem Incident
DR11 -6.01 dB -18.37 dB 7:08 04-Chimes Of Freedom
DR11 -6.02 dB -18.15 dB 4:47 05-I Shall Be Free No. 10
DR11 -6.04 dB -18.47 dB 3:51 06-To Ramona
DR11 -6.02 dB -17.60 dB 4:31 07-Motorpsycho Nightmare
DR11 -6.05 dB -18.24 dB 4:23 08-My Back Pages
DR11 -6.02 dB -18.62 dB 4:22 09-I Don't Believe You
DR12 -6.06 dB -20.40 dB 8:17 10-Ballad In Plain D
DR11 -6.05 dB -18.94 dB 3:33 11-It Ain't Me Babe
--------------------------------------------------------------------------------
Number of tracks: 11
Official DR value: DR11
Samplerate: 2822400 Hz / PCM Samplerate: 88200 Hz
Channels: 2
Bits per sample: 24
Bitrate: 5645 kbps
Codec: DST64

SACD ISO

https://filejoker.net/4h3honsbamhr/BobD_1964AntherSidefBbDylanCH903272003RemasterSACDIS.part1.rar
https://filejoker.net/xr2tzugh8ntm/BobD_1964AntherSidefBbDylanCH903272003RemasterSACDIS.part2.rar
https://filejoker.net/jqicddtd1f7b/BobD_1964AntherSidefBbDylanCH903272003RemasterSACDIS.part3.rar
https://filejoker.net/1qmdevl3ozke/BobD_1964AntherSidefBbDylanCH903272003RemasterSACDIS.part4.rar

FLAC 24-88.2

https://filejoker.net/9wnjv2bfc1eo/BobD_1964AntherSidefBbDylanCH903272003RemasterFLAC2488.2.part1.rar
https://filejoker.net/mqqidxsew499/BobD_1964AntherSidefBbDylanCH903272003RemasterFLAC2488.2.part2.rar

Leave a Reply

Your email address will not be published. Required fields are marked *

This site uses Akismet to reduce spam. Learn how your comment data is processed.