Bob Dylan – Blonde On Blonde (2CD) (1966) [SACD 2003] {SACD ISO + FLAC 24bit/88.2kHz}

Bob Dylan – Blonde On Blonde (2CD, 1966) [SACD 2003]
PS3 Rip | ISO | SACD DST64 2.0 & 5.1 > 1-bit/2.8224 MHz | 73:04 minutes | Scans included | 6,4 GB
or FLAC 2.0 Stereo (converted with foobar2000 to tracks) 24bit/88,2 kHz | 72:20 mins | Scans | 1,4 GB

Tracklist:
CD1 #01. Rainy Day Women #12 & 35
CD1 #02. Pledging My Time
CD1 #03. Visions Of Johanna
CD1 #04. One Of Us Must Know (Sooner Or Later)
CD1 #05. I Want You
CD1 #06. Stuck Inside Of Mobile With The Memphis Blues Again
CD1 #07. Leopard-Skin Pill-Box Hat
CD1 #08. Just Like A Woman
CD2 #01. Most Likely You Go Your Way (And I’ll Go Mine)
CD2 #02. Temporary Like Achilles
CD2 #03. Absolutely Sweet Marie
CD2 #04. Fourth Time Around
CD2 #05. Obviously Five Believers
CD2 #06. Sad-Eyed Lady Of The Lowlands

 

foobar2000 1.1.15 / Dynamic Range Meter 1.1.1
--------------------------------------------------------------------------------
Analyzed: Bob Dylan / Blonde On Blonde
--------------------------------------------------------------------------------
DR Peak RMS Duration Track
--------------------------------------------------------------------------------
DR12 -6.06 dB -22.16 dB 4:36 01-Rainy Day Women #12 & 35
DR12 -6.04 dB -21.78 dB 3:52 02-Pledging My Time
DR14 -6.05 dB -24.58 dB 7:33 03-Visions Of Johanna
DR12 -6.03 dB -22.23 dB 4:54 04-One Of Us Must Know (Sooner Or Later)
DR12 -6.07 dB -21.77 dB 3:07 05-I Want You
DR12 -6.06 dB -21.64 dB 7:07 06-Stuck Inside Of Mobile With The Memphis Blues Again
DR11 -6.08 dB -22.01 dB 3:57 07-Leopard-Skin Pill-Box Hat
DR13 -6.07 dB -22.19 dB 4:53 08-Just Like A Woman
--------------------------------------------------------------------------------
Number of tracks: 8
Official DR value: DR12
Samplerate: 2822400 Hz / PCM Samplerate: 88200 Hz
Channels: 6
Bits per sample: 24
Bitrate: 16934 kbps
Codec: DST64
==========================================================
--------------------------------------------------------------------------------
Analyzed: Bob Dylan / Blonde On Blonde
--------------------------------------------------------------------------------
DR Peak RMS Duration Track
--------------------------------------------------------------------------------
DR11 -6.04 dB -18.43 dB 4:33 01-Rainy Day Women #12 & 35
DR11 -6.06 dB -18.64 dB 3:47 02-Pledging My Time
DR14 -6.05 dB -22.02 dB 7:31 03-Visions Of Johanna
DR10 -6.03 dB -18.63 dB 4:51 04-One Of Us Must Know (Sooner Or Later)
DR11 -6.61 dB -18.78 dB 3:05 05-I Want You
DR10 -6.03 dB -17.19 dB 7:03 06-Stuck Inside Of Mobile With The Memphis Blues Again
DR10 -6.04 dB -17.91 dB 3:54 07-Leopard-Skin Pill-Box Hat
DR11 -6.62 dB -19.52 dB 4:51 08-Just Like A Woman
--------------------------------------------------------------------------------
Number of tracks: 8
Official DR value: DR11
Samplerate: 2822400 Hz / PCM Samplerate: 88200 Hz
Channels: 2
Bits per sample: 24
Bitrate: 5645 kbps
Codec: DSD64
================================================================================
--------------------------------------------------------------------------------
Analyzed: Bob Dylan / Blonde On Blonde
--------------------------------------------------------------------------------
DR Peak RMS Duration Track
--------------------------------------------------------------------------------
DR12 -6.09 dB -21.69 dB 3:30 01-Most Likely You Go Your Way (And I'll Go Mine)
DR11 -6.09 dB -22.31 dB 5:02 02-Temporary Like Achilles
DR12 -6.09 dB -22.69 dB 4:58 03-Absolutely Sweet Marie
DR12 -6.47 dB -23.50 dB 4:37 04-Fourth Time Around
DR11 -6.08 dB -21.24 dB 3:35 05-Obviously Five Believers
DR12 -6.08 dB -22.59 dB 11:25 06-Sad-Eyed Lady Of The Lowlands
--------------------------------------------------------------------------------
Number of tracks: 6
Official DR value: DR12
Samplerate: 2822400 Hz / PCM Samplerate: 88200 Hz
Channels: 6
Bits per sample: 24
Bitrate: 16934 kbps
Codec: DST64
================================================================================
--------------------------------------------------------------------------------
Analyzed: Bob Dylan / Blonde On Blonde
--------------------------------------------------------------------------------
DR Peak RMS Duration Track
--------------------------------------------------------------------------------
DR11 -6.03 dB -17.86 dB 3:27 01-Most Likely You Go Your Way (And I'll Go Mine)
DR10 -6.05 dB -17.84 dB 5:01 02-Temporary Like Achilles
DR11 -6.03 dB -18.17 dB 4:55 03-Absolutely Sweet Marie
DR12 -6.03 dB -19.46 dB 4:33 04-Fourth Time Around
DR9 -6.03 dB -16.23 dB 3:33 05-Obviously Five Believers
DR12 -6.04 dB -20.21 dB 11:17 06-Sad-Eyed Lady Of The Lowlands
--------------------------------------------------------------------------------
Number of tracks: 6
Official DR value: DR11
Samplerate: 2822400 Hz / PCM Samplerate: 88200 Hz
Channels: 2
Bits per sample: 24
Bitrate: 5645 kbps
Codec: DSD64

SACD ISO

https://filejoker.net/uofi0xownyb7/BobD_1966BlndenBlndeCH903252003RemasterSACDIS.part1.rar
https://filejoker.net/lkn1go4angzk/BobD_1966BlndenBlndeCH903252003RemasterSACDIS.part2.rar
https://filejoker.net/6eopb6j7lk13/BobD_1966BlndenBlndeCH903252003RemasterSACDIS.part3.rar
https://filejoker.net/16daz383nd4l/BobD_1966BlndenBlndeCH903252003RemasterSACDIS.part4.rar
https://filejoker.net/1snuvdhdw9fk/BobD_1966BlndenBlndeCH903252003RemasterSACDIS.part5.rar
https://filejoker.net/euj6nn6ekv80/BobD_1966BlndenBlndeCH903252003RemasterSACDIS.part6.rar
https://filejoker.net/zssfoaefemw2/BobD_1966BlndenBlndeCH903252003RemasterSACDIS.part7.rar

FLAC 24-88.2

https://filejoker.net/lew1pql97wcc/BobD_1966BlndenBlndeCH903252003RemasterFLAC2488.2.part1.rar
https://filejoker.net/v80ca7r8pxvn/BobD_1966BlndenBlndeCH903252003RemasterFLAC2488.2.part2.rar

Leave a Reply

Your email address will not be published. Required fields are marked *

This site uses Akismet to reduce spam. Learn how your comment data is processed.