Bob Dylan – Blood On The Tracks (1975) [SACD 2003] {SACD ISO + FLAC 24bit/88.2kHz}

Bob Dylan – Blood On The Tracks (1975) [SACD 2003]
PS3 Rip | ISO | SACD DST64 2.0 & 5.1 > 1-bit/2.8224 MHz | 51:23 mins | Scans included | 3,23 GB
or FLAC 2.0 Stereo (converted with foobar2000 to tracks) 24bit/88,2 kHz | 51:28 mins | Scans | 1,01 GB

Tracklist:
01. Tangled Up In Blue
02. Simple Twist Of Fate
03. You’re A Big Girl Now
04. Idiot Wind
05. You’re Gonna Make Me Lonesome When You Go
06. Meet Me In The Morning
07. Lily, Rosemary And The Jack Of Hearts
08. If You See Her, Say Hello
09. Shelter From The Storm
10. Buckets Of Rain

 

foobar2000 1.1.15 / Dynamic Range Meter 1.1.1
--------------------------------------------------------------------------------
Analyzed: Bob Dylan / Blood On The Tracks
--------------------------------------------------------------------------------
DR Peak RMS Duration Track
--------------------------------------------------------------------------------
DR14 -2.80 dB -23.01 dB 5:41 01-Tangled Up In Blue
DR13 -3.90 dB -23.93 dB 4:17 02-Simple Twist Of Fate
DR13 -5.50 dB -25.61 dB 4:31 03-You're A Big Girl Now
DR13 -3.49 dB -22.37 dB 7:41 04-Idiot Wind
DR13 -4.25 dB -24.96 dB 2:54 05-You're Gonna Make Me Lonesome When You Go
DR14 -4.24 dB -24.35 dB 4:19 06-Meet Me In The Morning
DR13 -5.37 dB -23.83 dB 8:51 07-Lily, Rosemary And The Jack Of Hearts
DR12 -5.62 dB -25.21 dB 4:46 08-If You See Her, Say Hello
DR13 -3.49 dB -24.68 dB 5:01 09-Shelter From The Storm
DR15 -2.30 dB -26.26 dB 3:22 10-Buckets Of Rain
--------------------------------------------------------------------------------
Number of tracks: 10
Official DR value: DR13
Samplerate: 2822400 Hz / PCM Samplerate: 88200 Hz
Channels: 6
Bits per sample: 24
Bitrate: 16934 kbps
Codec: DST64
================================================================================
--------------------------------------------------------------------------------
Analyzed: Bob Dylan / Blood On The Tracks
--------------------------------------------------------------------------------
DR Peak RMS Duration Track
--------------------------------------------------------------------------------
DR12 -5.99 dB -19.47 dB 5:41 01-Tangled Up In Blue
DR13 -6.04 dB -21.59 dB 4:15 02-Simple Twist Of Fate
DR13 -6.06 dB -21.60 dB 4:32 03-You're A Big Girl Now
DR11 -5.98 dB -18.74 dB 7:45 04-Idiot Wind
DR13 -6.09 dB -20.92 dB 2:55 05-You're Gonna Make Me Lonesome When You Go
DR13 -6.07 dB -21.10 dB 4:20 06-Meet Me In The Morning
DR11 -5.97 dB -18.12 dB 8:50 07-Lily, Rosemary And The Jack Of Hearts
DR12 -6.21 dB -21.52 dB 4:48 08-If You See Her, Say Hello
DR14 -6.35 dB -23.80 dB 5:01 09-Shelter From The Storm
DR15 -6.27 dB -23.99 dB 3:23 10-Buckets Of Rain
--------------------------------------------------------------------------------
Number of tracks: 10
Official DR value: DR13
Samplerate: 2822400 Hz / PCM Samplerate: 88200 Hz
Channels: 2
Bits per sample: 24
Bitrate: 5645 kbps
Codec: DST64

SACD ISO

https://filejoker.net/6gzt7zzn4yjg/BobD_1975BldnTheTracksCH903232003RemasterSACDIS.part1.rar
https://filejoker.net/a9y5a1fa4vk2/BobD_1975BldnTheTracksCH903232003RemasterSACDIS.part2.rar
https://filejoker.net/v49pn58udrau/BobD_1975BldnTheTracksCH903232003RemasterSACDIS.part3.rar
https://filejoker.net/kqwt0mj2p2v4/BobD_1975BldnTheTracksCH903232003RemasterSACDIS.part4.rar

FLAC 24-88.2

https://filejoker.net/eam923v8gwij/BobD_1975BldnTheTracksCH903232003RemasterFLAC2488.2.part1.rar
https://filejoker.net/n2xg9inw6q3n/BobD_1975BldnTheTracksCH903232003RemasterFLAC2488.2.part2.rar

Leave a Reply

Your email address will not be published. Required fields are marked *

This site uses Akismet to reduce spam. Learn how your comment data is processed.