Bob Dylan – Bringing It All Back Home (1965) [SACD 2003] {SACD ISO + FLAC 24bit/88.2kHz}

Bob Dylan – Bringing It All Back Home (1965) [SACD 2003]
PS3 Rip | ISO | SACD DST64 2.0 & 5.1 > 1-bit/2.8224 MHz | 47:02 minutes | Scans included | 3,03 GB
or FLAC 2.0 Stereo (converted with foobar2000 to tracks) 24bit/88,2 kHz | 46:46 mins | Scans | 905 MB

Tracklist:
01. Subterranean Homesick Blues
02. She Belongs To Me
03. Maggie’s Farm
04. Love Minus Zero/No Limit
05. Outlaw Blues
06. On The Road Again
07. Bob Dylan’s 115th Dream
08. Mr. Tambourine Man
09. Gates Of Eden
10. It’s Alright, Ma (I’m Only Bleeding)
11. It’s All Over Now, Baby Blue

 

foobar2000 1.1.15 / Dynamic Range Meter 1.1.1
--------------------------------------------------------------------------------
Analyzed: Bob Dylan / Bringing It All Back Home
--------------------------------------------------------------------------------
DR Peak RMS Duration Track
--------------------------------------------------------------------------------
DR12 -6.09 dB -22.79 dB 2:19 01-Subterranean Homesick Blues
DR13 -6.04 dB -23.33 dB 2:49 02-She Belongs To Me
DR12 -6.05 dB -21.01 dB 3:59 03-Maggie's Farm
DR12 -6.04 dB -22.64 dB 2:49 04-Love Minus Zero/No Limit
DR11 -6.05 dB -20.70 dB 3:03 05-Outlaw Blues
DR12 -6.04 dB -21.45 dB 2:36 06-On The Road Again
DR11 -6.04 dB -20.79 dB 6:32 07-Bob Dylan's 115th Dream
DR12 -6.05 dB -23.81 dB 5:25 08-Mr. Tambourine Man
DR13 -6.05 dB -22.95 dB 5:40 09-Gates Of Eden
DR14 -6.05 dB -23.18 dB 7:33 10-It's Alright, Ma (I'm Only Bleeding)
DR13 -6.08 dB -23.73 dB 4:17 11-It's All Over Now, Baby Blue
--------------------------------------------------------------------------------
Number of tracks: 11
Official DR value: DR12
Samplerate: 2822400 Hz / PCM Samplerate: 88200 Hz
Channels: 6
Bits per sample: 24
Bitrate: 16934 kbps
Codec: DST64
================================================================================
--------------------------------------------------------------------------------
Analyzed: Bob Dylan / Bringing It All Back Home
--------------------------------------------------------------------------------
DR Peak RMS Duration Track
--------------------------------------------------------------------------------
DR10 -6.03 dB -16.77 dB 2:19 01-Subterranean Homesick Blues
DR9 -6.01 dB -16.73 dB 2:47 02-She Belongs To Me
DR9 -6.01 dB -16.48 dB 3:58 03-Maggie's Farm
DR10 -6.00 dB -17.73 dB 2:48 04-Love Minus Zero/No Limit
DR9 -6.03 dB -16.39 dB 3:02 05-Outlaw Blues
DR9 -6.01 dB -16.78 dB 2:33 06-On The Road Again
DR10 -6.01 dB -16.46 dB 6:30 07-Bob Dylan's 115th Dream
DR11 -6.00 dB -18.59 dB 5:25 08-Mr. Tambourine Man
DR11 -6.02 dB -18.25 dB 5:41 09-Gates Of Eden
DR12 -6.08 dB -20.00 dB 7:31 10-It's Alright, Ma (I'm Only Bleeding)
DR11 -6.03 dB -19.27 dB 4:13 11-It's All Over Now, Baby Blue
--------------------------------------------------------------------------------
Number of tracks: 11
Official DR value: DR10
Samplerate: 2822400 Hz / PCM Samplerate: 88200 Hz
Channels: 2
Bits per sample: 24
Bitrate: 5645 kbps
Codec: DST64

SACD ISO

https://filejoker.net/xyti5e7e3ybt/BobD_1965BringingItAllBackHmeCH903262003RemasterSACDIS.part1.rar
https://filejoker.net/yegw4mvl588q/BobD_1965BringingItAllBackHmeCH903262003RemasterSACDIS.part2.rar
https://filejoker.net/fvo3ssousb8p/BobD_1965BringingItAllBackHmeCH903262003RemasterSACDIS.part3.rar
https://filejoker.net/x9k7mk4u5mc6/BobD_1965BringingItAllBackHmeCH903262003RemasterSACDIS.part4.rar

FLAC 24-88.2

https://filejoker.net/pbd7w3k1wuua/BobD_1965BringingItAllBackHmeCH903262003RemasterFLAC2488.2.rar

Leave a Reply

Your email address will not be published. Required fields are marked *

This site uses Akismet to reduce spam. Learn how your comment data is processed.