Bob Dylan – Desire (1976) [SACD 2003] {SACD ISO + FLAC 24bit/88.2kHz}

Bob Dylan – Desire (1976) [SACD 2003]
PS3 Rip | ISO | SACD DSD64 2.0 > 1-bit/2.8224 MHz | 56:05 minutes | Scans included | 2,26 GB
or FLAC 2.0 Stereo (converted with foobar2000 to tracks) | 24 bit/88,2 kHz | Scans | 1,11 GB

Tracklist:
01. Hurricane
02. Isis
03. Mozambique
04. One More Cup Of Coffee
05. Oh, Sister
06. Joey
07. Romance In Durango
08. Black Diamond Bay
09. Sara

 

foobar2000 1.1.15 / Dynamic Range Meter 1.1.1
--------------------------------------------------------------------------------
Analyzed: Bob Dylan / Desire
--------------------------------------------------------------------------------
DR Peak RMS Duration Track
--------------------------------------------------------------------------------
DR10 -5.96 dB -17.34 dB 8:33 01-Hurricane
DR10 -5.90 dB -16.90 dB 6:58 02-Isis
DR11 -6.05 dB -18.74 dB 3:00 03-Mozambique
DR11 -6.01 dB -19.03 dB 3:45 04-One More Cup Of Coffee
DR12 -6.07 dB -19.70 dB 4:01 05-Oh, Sister
DR10 -6.04 dB -18.60 dB 11:04 06-Joey
DR10 -6.02 dB -17.45 dB 5:43 07-Romance In Durango
DR10 -6.03 dB -17.79 dB 7:31 08-Black Diamond Bay
DR10 -6.03 dB -17.56 dB 5:31 09-Sara
--------------------------------------------------------------------------------
Number of tracks: 9
Official DR value: DR11
Samplerate: 2822400 Hz / PCM Samplerate: 88200 Hz
Channels: 2
Bits per sample: 24
Bitrate: 5645 kbps
Codec: DSD64

SACD ISO

https://filejoker.net/jyh6308pdkfu/BobD_1976DesireCH903182003RemasterSACDIS.part1.rar
https://filejoker.net/e7d10r0fjyq8/BobD_1976DesireCH903182003RemasterSACDIS.part2.rar
https://filejoker.net/z0kkkod2d7qt/BobD_1976DesireCH903182003RemasterSACDIS.part3.rar

FLAC 24-88.2

https://filejoker.net/f4bbrwbm4jim/BobD_1976DesireCH903182003RemasterFLAC2488.2.part1.rar
https://filejoker.net/5o51jf0sb5pm/BobD_1976DesireCH903182003RemasterFLAC2488.2.part2.rar

Leave a Reply

Your email address will not be published. Required fields are marked *

This site uses Akismet to reduce spam. Learn how your comment data is processed.