Bob Dylan – Highway 61 Revisited (1965) [SACD 2003] {SACD ISO + FLAC 24bit/88.2kHz}

Bob Dylan – Highway 61 Revisited (1965) [SACD 2003]
PS3 Rip | ISO | SACD DSD64 2.0 > 1-bit/2.8224 MHz | 50:56 minutes | Scans included | 2,07 GB
or FLAC 2.0 Stereo (converted with foobar2000 to tracks) | 24 bit/88,2 kHz | Scans | 1,03 GB

Tracklist:
01. Like A Rolling Stone
02. Tombstone Blues
03. It Takes A Lot To Laugh, It Takes A Train To Cry
04. From A Buick 6
05. Ballad Of A Thin Man
06. Queen Jane Approximately
07. Highway 61 Revisited
08. Just Like Tom Thumb’s Blues
09. Desolation Row

 

foobar2000 1.1.15 / Dynamic Range Meter 1.1.1
--------------------------------------------------------------------------------
Analyzed: Bob Dylan / Highway 61 Revisited
--------------------------------------------------------------------------------
DR Peak RMS Duration Track
--------------------------------------------------------------------------------
DR9 -6.04 dB -16.18 dB 6:08 01-Like A Rolling Stone
DR9 -6.03 dB -16.15 dB 5:55 02-Tombstone Blues
DR9 -6.45 dB -17.78 dB 4:04 03-It Takes A Lot To Laugh, It Takes A Train To Cry
DR9 -6.03 dB -15.91 dB 3:15 04-From A Buick 6
DR10 -6.04 dB -16.99 dB 5:56 05-Ballad Of A Thin Man
DR8 -6.04 dB -15.86 dB 5:27 06-Queen Jane Approximately
DR10 -6.04 dB -17.10 dB 3:25 07-Highway 61 Revisited
DR10 -6.06 dB -17.33 dB 5:27 08-Just Like Tom Thumb's Blues
DR8 -5.94 dB -16.45 dB 11:20 09-Desolation Row
--------------------------------------------------------------------------------
Number of tracks: 9
Official DR value: DR9
Samplerate: 2822400 Hz / PCM Samplerate: 88200 Hz
Channels: 2
Bits per sample: 24
Bitrate: 5645 kbps
Codec: DSD64

SACD ISO

https://filejoker.net/84sobwasocyw/BobD_1965Highway61RevisitedCH903242003RemasterSACDIS.part1.rar
https://filejoker.net/vjiusv4odmym/BobD_1965Highway61RevisitedCH903242003RemasterSACDIS.part2.rar
https://filejoker.net/ynm424yj1pxw/BobD_1965Highway61RevisitedCH903242003RemasterSACDIS.part3.rar

FLAC 24-88.2

https://filejoker.net/6x0uxma9t6l6/BobD_1965Highway61RevisitedCH903242003RemasterFLAC2488.2.part1.rar
https://filejoker.net/p2b292zg02bd/BobD_1965Highway61RevisitedCH903242003RemasterFLAC2488.2.part2.rar

Leave a Reply

Your email address will not be published. Required fields are marked *

This site uses Akismet to reduce spam. Learn how your comment data is processed.