Bob Dylan – Nashville Skyline (1969) [SACD 2003] {SACD ISO + FLAC 24bit/88.2kHz}

Bob Dylan – Nashville Skyline (1969) [SACD 2003]
PS3 Rip | ISO | SACD DSD64 2.0 > 1-bit/2.8224 MHz | 26:45 minutes | Scans included | 1,09 GB
or FLAC 2.0 Stereo (converted with foobar2000 to tracks) | 24 bit/88,2 kHz | Scans | 516 MB

Tracklist:
01. Girl From The North Country
02. Nashville Skyline Rag
03. To Be Alone With You
04. I Threw It All Away
05. Peggy Day
06. Lay Lady Lay
07. One More Night
08. Tell Me That It Isn’t True
09. Country Pie
10. Tonight I’ll Be Staying Here With You

 

foobar2000 1.1.15 / Dynamic Range Meter 1.1.1
--------------------------------------------------------------------------------
Analyzed: Bob Dylan / Nashville Skyline
--------------------------------------------------------------------------------
DR Peak RMS Duration Track
--------------------------------------------------------------------------------
DR13 -6.04 dB -21.96 dB 3:42 01-Girl From The North Country
DR12 -6.02 dB -19.09 dB 3:12 02-Nashville Skyline Rag
DR10 -5.98 dB -17.92 dB 2:08 03-To Be Alone With You
DR12 -3.86 dB -17.94 dB 2:23 04-I Threw It All Away
DR10 -6.04 dB -18.93 dB 2:01 05-Peggy Day
DR12 -5.00 dB -20.50 dB 3:18 06-Lay Lady Lay
DR12 -3.70 dB -17.90 dB 2:21 07-One More Night
DR11 -6.04 dB -18.77 dB 2:41 08-Tell Me That It Isn't True
DR11 -6.01 dB -18.24 dB 1:37 09-Country Pie
DR12 -2.91 dB -17.24 dB 3:23 10-Tonight I'll Be Staying Here With You
--------------------------------------------------------------------------------
Number of tracks: 10
Official DR value: DR11
Samplerate: 2822400 Hz / PCM Samplerate: 88200 Hz
Channels: 2
Bits per sample: 24
Bitrate: 5645 kbps
Codec: DSD64

SACD ISO

https://filejoker.net/y4tsomxpe78l/BobD_1969NashvilleSkylineCH903192003RemasterSACDIS.part1.rar
https://filejoker.net/owl8zi7rkt4t/BobD_1969NashvilleSkylineCH903192003RemasterSACDIS.part2.rar

FLAC 24-88.2

https://filejoker.net/xyihw31i6bfv/BobD_1969NashvilleSkylineCH903192003RemasterFLAC2488.2.rar

Leave a Reply

Your email address will not be published. Required fields are marked *

This site uses Akismet to reduce spam. Learn how your comment data is processed.