Bob Dylan – Planet Waves (1974) [SACD 2003] {SACD ISO + FLAC 24bit/88.2kHz}

Bob Dylan – Planet Waves (1974) [SACD 2003]
PS3 Rip | ISO | SACD DSD64 2.0 > 1-bit/2.8224 MHz | 41:50 minutes | Scans included | 1,69 GB
or FLAC 2.0 Stereo (converted with foobar2000 to tracks) | 24 bit/88,2 kHz | Scans | 818 MB

Tracklist:
01. On A Night Like This
02. Going, Going, Gone
03. Tough Mama
04. Hazel
05. Something There Is About You
06. Forever Young
07. Forever Young
08. Dirge
09. You Angel You
10. Never Say Goodbye
11. Wedding Song

 

foobar2000 1.1.15 / Dynamic Range Meter 1.1.1
--------------------------------------------------------------------------------
Analyzed: Bob Dylan / Planet Waves
--------------------------------------------------------------------------------
DR Peak RMS Duration Track
--------------------------------------------------------------------------------
DR11 -6.06 dB -18.84 dB 2:55 01-On A Night Like This
DR11 -6.06 dB -20.32 dB 3:26 02-Going, Going, Gone
DR11 -6.04 dB -18.47 dB 4:14 03-Tough Mama
DR11 -6.04 dB -19.24 dB 2:48 04-Hazel
DR10 -5.99 dB -18.33 dB 4:42 05-Something There Is About You
DR10 -6.02 dB -20.85 dB 4:55 06-Forever Young
DR10 -6.02 dB -18.15 dB 2:47 07-Forever Young
DR11 -6.21 dB -21.48 dB 5:35 08-Dirge
DR10 -6.05 dB -18.43 dB 2:52 09-You Angel You
DR10 -6.01 dB -18.62 dB 2:52 10-Never Say Goodbye
DR11 -6.07 dB -20.19 dB 4:43 11-Wedding Song
--------------------------------------------------------------------------------
Number of tracks: 11
Official DR value: DR11
Samplerate: 2822400 Hz / PCM Samplerate: 88200 Hz
Channels: 2
Bits per sample: 24
Bitrate: 5645 kbps
Codec: DSD64

SACD ISO

https://filejoker.net/q6vj94581kgq/BobD_1974PlanetWavesCH903392003RemasterSACDIS.part1.rar
https://filejoker.net/p92abt80mhov/BobD_1974PlanetWavesCH903392003RemasterSACDIS.part2.rar

FLAC 24-88.2

https://filejoker.net/uuehk1kx1m1h/BobD_1974PlanetWavesCH903392003RemasterFLAC2488.2.rar

Leave a Reply

Your email address will not be published. Required fields are marked *

This site uses Akismet to reduce spam. Learn how your comment data is processed.