Bob Dylan – The Freewheelin’ Bob Dylan (1963) [SACD 2003] {SACD ISO + FLAC 24bit/88.2kHz}

Bob Dylan – The Freewheelin’ Bob Dylan (1963) [SACD 2003]
PS3 Rip | ISO | SACD DSD64 2.0 > 1-bit/2.8224 MHz | 49:26 minutes | Scans included | 2,02 GB
or FLAC 2.0 Stereo (converted with foobar2000 to tracks) | 24 bit/88,2 kHz | Scans | 0,99 GB

Tracklist:
01. Blowin’ In The Wind
02. Girl From The North Country
03. Masters Of War
04. Down The Highway
05. Bob Dylan’s Blues
06. A Hard Rain’s A-Gonna Fall
07. Don’t Think Twice, It’s All Right
08. Bob Dylan’s Dream
09. Oxford Town
10. Talkin’ World War III Blues
11. Corrina, Corrina
12. Honey, Just Allow Me One More Chance
13. I Shall Be Free

 

foobar2000 1.1.15 / Dynamic Range Meter 1.1.1
--------------------------------------------------------------------------------
Analyzed: Bob Dylan / The Freewheelin' Bob Dylan
--------------------------------------------------------------------------------
DR Peak RMS Duration Track
--------------------------------------------------------------------------------
DR12 -6.01 dB -20.22 dB 2:46 01-Blowin' In The Wind
DR11 -6.05 dB -20.25 dB 3:20 02-Girl From The North Country
DR12 -6.04 dB -20.20 dB 4:31 03-Masters Of War
DR13 -6.05 dB -22.35 dB 3:24 04-Down The Highway
DR13 -6.07 dB -21.63 dB 2:21 05-Bob Dylan's Blues
DR11 -6.06 dB -19.74 dB 6:50 06-A Hard Rain's A-Gonna Fall
DR12 -6.02 dB -20.49 dB 3:38 07-Don't Think Twice, It's All Right
DR11 -6.05 dB -20.09 dB 5:00 08-Bob Dylan's Dream
DR11 -6.08 dB -19.88 dB 1:46 09-Oxford Town
DR12 -6.08 dB -20.84 dB 6:25 10-Talkin' World War III Blues
DR12 -6.04 dB -20.48 dB 2:41 11-Corrina, Corrina
DR11 -6.04 dB -18.97 dB 1:58 12-Honey, Just Allow Me One More Chance
DR10 -6.04 dB -17.31 dB 4:47 13-I Shall Be Free
--------------------------------------------------------------------------------
Number of tracks: 13
Official DR value: DR11
Samplerate: 2822400 Hz / PCM Samplerate: 88200 Hz
Channels: 2
Bits per sample: 24
Bitrate: 5645 kbps
Codec: DSD64

SACD ISO

https://filejoker.net/nu3eddxmjb2d/BobD_1963TheFreewheelinBbDylanCH903212003RemasterSACDIS.part1.rar
https://filejoker.net/5viwyfjafc6y/BobD_1963TheFreewheelinBbDylanCH903212003RemasterSACDIS.part2.rar
https://filejoker.net/21p6j5zf1k4o/BobD_1963TheFreewheelinBbDylanCH903212003RemasterSACDIS.part3.rar

FLAC 24-88.2

https://filejoker.net/645zmqla8d9v/BobD_1963TheFreewheelinBbDylanCH903212003RemasterFLAC2488.2.part1.rar
https://filejoker.net/c6s5zzy1rk67/BobD_1963TheFreewheelinBbDylanCH903212003RemasterFLAC2488.2.part2.rar

Leave a Reply

Your email address will not be published. Required fields are marked *

This site uses Akismet to reduce spam. Learn how your comment data is processed.